#TITLE:Rum Pum Pum Pum;
#SUBTITLE:Expi3nze;
#ARTIST:F(x);
#TITLETRANSLIT:;
#SUBTITLETRANSLIT:;
#ARTISTTRANSLIT:;
#CREDIT:;
#BANNER:bn.png;
#BACKGROUND:bg.png;
#LYRICSPATH:;
#CDTITLE:;
#MUSIC:Rum Pum Pum Pum.mp3;
#OFFSET:-0.480;
#SAMPLESTART:56.480;
#SAMPLELENGTH:17.500;
#SELECTABLE:YES;
#BPMS:0.000=120.000,68.500=60.000,68.833=240.000,69.500=120.000,76.500=60.000,76.833=240.000,77.500=120.000,143.000=60.000,143.333=240.000,144.000=60.000,144.333=240.000,145.000=120.000;
#STOPS:;
#BGCHANGES:;
// cache tags:
#FIRSTBEAT:1.000;
#LASTBEAT:195.333;
#SONGFILENAME:Songs/9you/Rum Pum Pum Pum (Fx)/Rum Pum Pum Pum.sm;
#HASMUSIC:1;
#HASBANNER:1;
#MUSICLENGTH:99.869;
// end cache tags

//---------------dance-single - ----------------
#NOTES:
     dance-single:
     :
     Hard:
     12:
     0.890,0.856,1.000,0.611,0.250,358.000,190.000,61.000,0.000,25.000:
0000
0000
0000
0000
0010
0001
0000
1000
0100
0000
0010
0000
1000
0100
0000
0001
,
0100
0000
0010
0000
0001
0001
0000
0100
0010
0000
0100
0000
1000
0010
0000
1000
,
0010
0000
0010
0000
1000
1000
0000
0010
0001
0000
0100
0000
1000
0010
0000
1000
,
0010
0000
0010
0000
0010
0001
0000
0100
0010
0000
1000
0000
0110
0000
0000
1100
,
0011
1100
0000
1000
0100
0010
0001
0100
,
2000
0000
0000
0000
0000
3000
0000
0000
0000
1000
0000
0000
0100
0000
0000
0010
0000
0000
1000
0000
0000
1000
0000
0000
,
0002
0000
0000
0000
0000
0003
0000
0000
0000
0000
0000
0000
0010
0000
0000
1000
0000
0000
0001
0000
0000
0001
0000
0000
,
0200
0000
0000
0000
0000
0300
0000
0000
0000
0000
0000
0000
2000
0000
0000
0000
0000
3000
0200
0000
0000
0000
0000
0300
,
2000
0000
0000
0000
0000
3000
0010
0000
0000
0011
0000
0000
1000
0000
0000
0100
0000
0000
0010
0000
0000
0001
0000
0000
,
0200
0000
0000
0000
0000
0300
0000
0000
0000
0011
0000
0000
1000
0000
0000
0100
0000
0000
0001
0000
0000
1000
0000
0000
,
2000
0000
0000
0000
0000
3000
0000
0000
0000
1100
0000
0000
0010
0000
0000
0001
0000
0000
1000
0000
0000
1000
0000
0000
,
0200
0000
0000
0000
0000
0000
0000
0000
0000
0000
0300
0000
0000
0000
0000
0000
0000
0000
0011
0000
0000
0000
0000
0000
0020
0000
0000
0000
0000
0000
0000
0000
0000
0000
0030
0000
0102
0000
0000
0000
0000
0000
0000
0000
0000
0110
0003
0000
,
2001
0000
0000
0000
0000
0000
0110
0000
0000
0000
3000
0000
0110
0000
0000
0000
0000
0000
0000
0000
0000
0100
0000
0000
0100
0000
0000
0000
0000
0000
1010
0000
0000
0000
0000
0000
0001
0000
0000
0000
0000
0000
1100
0000
0000
0000
0000
0000
,
0011
0000
0000
1100
0000
0000
0020
0000
0000
0000
0000
0030
1002
0000
0000
0000
0000
0003
2000
0000
0000
0110
0000
3000
,
0110
1001
1000
0011
0110
1100
0011
0110
,
1100
0011
0011
1100
1010
0101
0011
0000
,
1100
0000
0000
1100
0000
0000
1002
0000
0000
0000
0000
0003
0110
0000
0000
1001
0000
0000
1010
0000
0000
1000
0000
0000
,
0111
0000
0000
0111
0000
0000
0000
0000
0000
1110
0000
0000
1101
0000
0000
0000
0000
0000
2002
0000
0000
0000
0000
3003
,
0110
0000
0000
1001
0000
0000
0120
0000
0000
0000
0000
0030
1100
0000
0000
0110
0000
0000
0011
0000
0000
0000
0000
0000
,
1110
0000
1101
0000
0000
0000
1011
0000
1101
0000
0000
0000
1110
0000
0000
1000
,
0100
0000
0010
0000
1100
0000
0000
0000
1100
0000
0011
0000
0000
0000
1010
0001
,
1010
0001
0010
0100
1000
0000
0000
0000
1010
0000
0011
0000
0000
0000
1001
0010
,
1001
0100
0010
0001
0010
0000
0000
0000
0011
0000
0011
0000
0000
0000
0110
0001
,
0110
0001
0010
0100
1000
0000
0000
0000
1001
0000
0011
0000
0000
0000
0010
0010
,
0001
0000
1000
0000
1010
0000
0000
0000
0011
0000
0110
0000
1100
0000
1010
0001
,
1010
0001
0010
0001
1100
0000
0000
0000
1100
0000
0011
0000
1000
0000
1001
0100
,
1001
0010
0001
0010
1001
0000
0000
0000
0011
0000
0011
0000
0100
0000
0110
0001
,
0110
0000
0000
1000
0000
0000
0100
0000
0000
0010
0000
0000
1001
0000
0000
0000
0000
0000
0110
0000
0000
0000
0000
0000
1001
0000
0000
0000
0000
0000
0220
0000
0000
0000
0000
0000
0000
0000
0000
0000
0330
0000
0000
0000
0000
0000
0000
0000
,
1000
0000
0000
0100
0000
0000
1110
0000
0000
2001
0000
0000
0110
0000
3000
0210
0000
0000
0000
0000
0300
0110
0000
0000
,
2102
0000
0000
0000
0000
0000
0000
0000
0000
0000
3003
0000
0200
0000
0000
0000
0000
0000
0000
0000
0000
0000
0300
0000
1021
0000
0000
0000
0000
0000
0000
0000
0000
0000
0030
0000
1000
0000
0000
0000
0000
0000
1000
0000
0000
0010
0000
0000
,
1100
0000
0000
1001
0000
0000
0011
0000
0000
0200
0000
0000
0011
0000
0300
1020
0000
0000
1100
0000
0030
1100
0000
0000
,
0012
0000
0000
0000
0000
0003
2200
0000
0000
0000
0000
3300
0022
0000
0000
0000
0000
0033
1000
0000
0000
1100
0000
0000
,
0110
0000
0000
0011
0000
0000
1100
0000
0000
1200
0000
0000
0011
0000
0300
1020
0000
0000
1100
0000
0030
0110
0000
0000
,
0012
0000
0000
0000
0000
0000
0000
0000
0000
0000
0003
0000
2020
0000
0000
0000
0000
0000
0000
0000
0000
0000
3030
0000
0202
0000
0000
0000
0000
0000
0000
0000
0000
0000
0303
0000
1000
0000
0000
0000
0000
0000
1000
0000
0000
1000
0000
0000
,
0011
0000
0000
0110
0000
0000
1100
0000
0000
1020
0000
0000
1100
0000
0030
0012
0000
0000
1010
0000
0003
0011
0000
0000
,
0110
0000
0000
0100
0000
0000
0220
0000
0000
1000
0000
0330
2102
0000
0000
0010
0000
3003
0002
0000
0000
0000
0000
0003
,
2000
0000
0000
0000
0000
3000
0011
0000
0000
0110
0000
0000
1100
0000
0000
1100
0000
0000
0000
0000
0000
0110
0000
0000
,
1001
0000
0000
1001
0000
0000
0220
0000
0000
0000
0000
0330
2002
0000
0000
0000
0000
3003
0110
0000
0000
0000
0000
0000
,
0110
0000
0000
0000
0000
0000
0200
0000
0000
0000
0000
0300
0020
0000
0000
0000
0000
0030
2000
0000
0000
0000
0000
3000
,
0011
0110
1100
1001
0011
0011
1000
1010
,
1010
0000
0011
0000
1001
0000
0010
0001
0110
0000
1100
0000
1100
0000
0010
1000
,
0101
1000
0100
0010
0001
0000
1000
0000
1100
0000
0011
0000
1000
0000
0000
0000
,
1100
0000
0011
0000
1100
0000
1001
0000
1100
0000
1100
0000
0010
0000
0010
0001
,
1010
0000
1000
1000
0011
0000
1000
0000
1010
0000
0011
0000
0100
0000
1010
0100
,
1010
0001
0010
0100
1000
0000
0001
0000
1010
0000
1010
0000
0000
0000
0000
0000
,
0011
0011
1100
0110
0011
0011
1000
1010
,
0101
0000
0101
0000
0011
0000
1000
1000
0011
0000
1100
0000
0011
0000
1000
1000
,
0010
0000
0000
0010
0000
0000
2000
0000
0000
0000
0000
3000
0200
0000
0000
0000
0000
0300
0002
0000
0000
0003
0000
0000
,
0110
0000
0000
0110
0000
0000
1001
0000
0000
1100
0000
0000
0110
0000
0000
0220
0000
0000
0000
0000
0330
0000
0000
0000
;

//---------------dance-single - Copied from----------------
#NOTES:
     dance-single:
     Copied from:
     Medium:
     7:
     0.622,0.538,0.330,0.471,0.235,355.000,33.000,47.000,0.000,1.000:
0000
0000
0000
0000
0010
0000
0000
1000
0100
0000
0010
0000
1000
0100
0000
0001
,
0100
0000
0010
0000
0001
0001
0000
0100
0010
0000
0100
0000
1000
0010
0000
1000
,
0010
0000
0010
0000
1000
1000
0000
0010
0001
0000
0100
0000
1000
0010
0000
1000
,
0010
0000
0010
0000
0010
0001
0000
0100
0010
0000
1000
0000
0110
0000
0000
0100
,
0001
1000
0000
1000
0100
0010
0001
0100
,
2000
0000
0000
0000
0000
3000
0000
0000
0000
1000
0000
0000
0100
0000
0000
0010
0000
0000
1000
0000
0000
1000
0000
0000
,
0002
0000
0000
0000
0000
0003
0000
0000
0000
0000
0000
0000
0010
0000
0000
1000
0000
0000
0001
0000
0000
0001
0000
0000
,
0200
0000
0000
0000
0000
0300
0000
0000
0000
0000
0000
0000
2000
0000
0000
0000
0000
3000
0200
0000
0000
0000
0000
0300
,
2000
0000
0000
0000
0000
3000
0010
0000
0000
0011
0000
0000
1000
0000
0000
0100
0000
0000
0010
0000
0000
0001
0000
0000
,
0200
0000
0000
0000
0000
0300
0000
0000
0000
0011
0000
0000
1000
0000
0000
0100
0000
0000
0001
0000
0000
1000
0000
0000
,
2000
0000
0000
0000
0000
3000
0000
0000
0000
1100
0000
0000
0010
0000
0000
0001
0000
0000
1000
0000
0000
1000
0000
0000
,
0200
0000
0000
0000
0000
0000
0000
0000
0000
0000
0300
0000
0000
0000
0000
0000
0000
0000
0010
0000
0000
0000
0000
0000
0020
0000
0000
0000
0000
0000
0000
0000
0000
0000
0030
0000
0002
0000
0000
0000
0000
0000
0000
0000
0000
0010
0003
0000
,
2001
0000
0000
0000
0000
0000
0100
0000
0000
0000
3000
0000
0001
0000
0000
0000
0000
0000
0000
0000
0000
0100
0000
0000
0100
0000
0000
0000
0000
0000
0010
0000
0000
0000
0000
0000
0001
0000
0000
0000
0000
0000
1000
0000
0000
0000
0000
0000
,
0010
0000
0000
0100
0000
0000
0020
0000
0000
0000
0000
0030
0002
0000
0000
0000
0000
0003
2000
0000
0000
0100
0000
3000
,
0010
0001
1000
0001
0010
1000
0001
0100
,
0010
0001
0010
0100
0010
0001
1100
0000
,
1000
0000
0000
0100
0000
0000
0002
0000
0000
0000
0000
0003
0010
0000
0000
0001
0000
0000
1000
0000
0000
0100
0000
0000
,
0011
0000
0000
0011
0000
0000
0000
0000
0000
1010
0000
0000
1010
0000
0000
0000
0000
0000
0002
0000
0000
0000
0000
0003
,
0010
0000
0000
0001
0000
0000
0020
0000
0000
0000
0000
0030
1000
0000
0000
0100
0000
0000
0010
0000
0000
0000
0000
0000
,
1100
0000
0101
0000
0000
0000
0011
0000
1001
0000
0000
0000
1100
0000
0000
1000
,
0100
0000
0010
0000
1000
0000
0000
0000
0100
0000
0010
0000
0000
0000
0010
0100
,
0010
0001
0010
0100
1000
0000
0000
0000
0010
0000
0010
0000
0000
0000
0001
0010
,
0001
0100
0010
0001
0010
0000
0000
0000
0010
0000
0001
0000
0000
0000
0010
0001
,
0010
0001
0010
0100
1000
0000
0000
0000
0001
0000
0010
0000
0000
0000
0100
0010
,
0001
0000
0000
0000
1000
0000
0000
0000
0001
0000
0010
0000
0100
0000
0010
0001
,
0010
0001
0010
0001
0100
0000
0000
0000
1000
0000
0001
0000
1000
0000
1000
0100
,
0001
0010
0001
0010
0100
0000
0000
0000
0001
0000
0010
0000
0100
0000
0010
0001
,
0010
0000
0000
1000
0000
0000
0100
0000
0000
0010
0000
0000
0001
0000
0000
0000
0000
0000
0100
0000
0000
0000
0000
0000
0001
0000
0000
0000
0000
0000
0200
0000
0000
0000
0000
0000
0000
0000
0000
0000
0300
0000
0000
0000
0000
0000
0000
0000
,
1000
0000
0000
0100
0000
0000
0011
0000
0000
2000
0000
0000
0010
0000
3000
0200
0000
0000
0000
0000
0300
0010
0000
0000
,
0102
0000
0000
0000
0000
0000
0000
0000
0000
0000
0003
0000
0200
0000
0000
0000
0000
0000
0000
0000
0000
0000
0300
0000
0020
0000
0000
0000
0000
0000
0000
0000
0000
0000
0030
0000
1000
0000
0000
0000
0000
0000
1000
0000
0000
0010
0000
0000
,
0100
0000
0000
1000
0000
0000
0011
0000
0000
0200
0000
0000
0010
0000
0300
0020
0000
0000
1000
0000
0030
0100
0000
0000
,
0012
0000
0000
0000
0000
0003
2000
0000
0000
0000
0000
3000
0020
0000
0000
0000
0000
0030
1000
0000
0000
0100
0000
0000
,
0010
0000
0000
0001
0000
0000
1100
0000
0000
0200
0000
0000
0010
0000
0300
0020
0000
0000
1000
0000
0030
0100
0000
0000
,
0012
0000
0000
0000
0000
0000
0000
0000
0000
0000
0003
0000
2000
0000
0000
0000
0000
0000
0000
0000
0000
0000
3000
0000
0200
0000
0000
0000
0000
0000
0000
0000
0000
0000
0300
0000
1000
0000
0000
0000
0000
0000
1000
0000
0000
1000
0000
0000
,
0001
0000
0000
0010
0000
0000
0100
0000
0000
0020
0000
0000
1100
0000
0030
0002
0000
0000
1000
0000
0003
0011
0000
0000
,
0100
0000
0000
1000
0000
0000
0010
0000
0000
1000
0000
0000
0100
0000
0000
0010
0000
0000
0002
0000
0000
0000
0000
0003
,
2000
0000
0000
0000
0000
3000
0001
0000
0000
0010
0000
0000
1100
0000
0000
1100
0000
0000
0000
0000
0000
0010
0000
0000
,
0001
0000
0000
1000
0000
0000
0020
0000
0000
0000
0000
0030
2000
0000
0000
0000
0000
3000
0110
0000
0000
0000
0000
0000
,
0110
0000
0000
0000
0000
0000
0200
0000
0000
0000
0000
0300
0020
0000
0000
0000
0000
0030
2000
0000
0000
0000
0000
3000
,
0001
0010
0100
1000
0011
0011
1000
1000
,
0010
0000
0001
0000
1000
0000
0010
0000
0001
0000
1000
0000
0100
0000
0010
1000
,
0100
1000
0100
0010
0001
0000
1000
0000
0100
0000
0010
0000
1000
0000
0000
0000
,
0100
0000
0010
0000
1000
0000
0001
0000
1100
0000
1100
0000
0001
0000
0010
0001
,
0010
0000
1000
0100
0010
0000
1000
0000
0100
0000
0001
0000
0100
0000
1000
0100
,
0010
0001
0010
0100
1000
0000
0001
0000
0010
0000
0100
0000
0010
0000
0000
0000
,
0001
0010
0100
0010
1001
0011
1000
0100
,
0001
0000
0100
0000
0001
0000
1000
1000
0001
0000
1000
0000
0010
0000
1000
0000
,
0010
0000
0000
0010
0000
0000
2000
0000
0000
0000
0000
3000
0200
0000
0000
0000
0000
0300
0002
0000
0000
0003
0000
0000
,
0100
0000
0000
0010
0000
0000
0001
0000
0000
1000
0000
0000
0010
0000
0000
0200
0000
0000
0000
0000
0300
0000
0000
0000
;

//---------------dance-single - Copied from----------------
#NOTES:
     dance-single:
     Copied from:
     Easy:
     4:
     0.462,0.465,0.190,0.461,0.025,258.000,19.000,46.000,0.000,0.000:
0000
0000
0000
0000
0010
0000
0000
1000
0000
0000
0010
0000
0000
0000
0000
0000
,
0000
0000
0000
0000
,
0000
0000
0000
0000
0010
0000
0000
0100
0000
0000
0001
0000
0000
0000
0000
0000
,
0000
0000
0000
0000
0000
0000
0000
0000
0000
0000
0000
0000
0010
0000
0000
0100
,
0010
1000
0000
1000
0100
0010
0001
0100
,
2000
0000
0000
0000
0000
3000
0000
0000
0000
1000
0000
0000
0100
0000
0000
0010
0000
0000
1000
0000
0000
1000
0000
0000
,
0002
0000
0000
0000
0000
0003
0000
0000
0000
0000
0000
0000
0010
0000
0000
1000
0000
0000
0001
0000
0000
0001
0000
0000
,
0200
0000
0000
0000
0000
0300
0000
0000
0000
0000
0000
0000
2000
0000
0000
0000
0000
3000
0200
0000
0000
0000
0000
0300
,
2000
0000
0000
0000
0000
3000
0010
0000
0000
0000
0000
0000
1000
0000
0000
0100
0000
0000
0010
0000
0000
0001
0000
0000
,
0200
0000
0000
0000
0000
0300
0000
0000
0000
0000
0000
0000
1000
0000
0000
0100
0000
0000
0001
0000
0000
1000
0000
0000
,
2000
0000
0000
0000
0000
3000
0000
0000
0000
0000
0000
0000
0010
0000
0000
0001
0000
0000
1000
0000
0000
1000
0000
0000
,
0200
0000
0000
0000
0000
0300
0000
0000
0000
0000
0000
0000
0020
0000
0000
0000
0000
0030
0002
0000
0000
0000
0000
0003
,
2000
0000
0000
0000
0000
0000
0100
0000
0000
0000
3000
0000
0010
0000
0000
0000
0000
0000
0000
0000
0000
0100
0000
0000
0010
0000
0000
0000
0000
0000
1000
0000
0000
0000
0000
0000
0000
0000
0000
0000
0000
0000
0100
0000
0000
0000
0000
0000
,
0010
0000
0000
1000
0000
0000
0020
0000
0000
0000
0000
0030
0002
0000
0000
0000
0000
0003
2000
0000
0000
0000
0000
3000
,
0010
0001
1000
0001
0010
0100
0001
0010
,
1000
0010
0001
0100
0010
0001
0010
0000
,
0100
0000
0000
0100
0000
0000
0002
0000
0000
0000
0000
0003
0010
0000
0000
0001
0000
0000
0100
0000
0000
0000
0000
0000
,
0011
0000
0000
0011
0000
0000
0000
0000
0000
1100
0000
0000
1100
0000
0000
0000
0000
0000
2000
0000
0000
0000
0000
3000
,
0010
0000
0000
0001
0000
0000
0020
0000
0000
0000
0000
0030
1000
0000
0000
0100
0000
0000
0001
0000
0000
0000
0000
0000
,
1100
0000
1100
0000
0000
0000
0011
0000
0011
0000
0000
0000
1100
0000
0000
1000
,
0100
0010
1000
0000
1000
0000
0001
0010
,
0100
1000
0100
0000
0001
0001
0000
0000
,
0010
0010
0001
0000
0100
0000
0010
0000
,
0100
0010
0001
1000
0010
0100
0000
0000
,
0001
0000
1010
0000
0001
0010
0100
1000
,
0100
0010
0001
0100
0100
0001
0000
0000
,
0010
1000
0100
0000
0001
0000
0100
0000
,
0010
0001
1000
0100
0010
0100
0000
0000
,
1000
0000
0000
0100
0000
0000
0011
0000
0000
2000
0000
0000
0010
0000
3000
0200
0000
0000
0000
0000
0300
1000
0000
0000
,
0002
0000
0000
0000
0000
0003
0200
0000
0000
0000
0000
0300
0020
0000
0000
0000
0000
0030
1000
0000
0000
0000
0000
0000
,
0000
0000
0000
0001
0000
0000
0010
0000
0000
0200
0000
0000
0001
0000
0300
0020
0000
0000
1000
0000
0030
0100
0000
0000
,
0002
0000
0000
0000
0000
0003
0200
0000
0000
0000
0000
0300
0020
0000
0000
0000
0000
0030
0000
0000
0000
0100
0000
0000
,
0010
0000
0000
0100
0000
0000
1000
0000
0000
0200
0000
0000
0001
0000
0300
0020
0000
0000
1000
0000
0030
0100
0000
0000
,
0002
0000
0000
0000
0000
0003
2000
0000
0000
0000
0000
3000
0002
0000
0000
0000
0000
0003
0000
0000
0000
0000
0000
0000
,
0001
0000
0000
0010
0000
0000
0100
0000
0000
0020
0000
0000
1000
0000
0030
0002
0000
0000
1000
0000
0003
0001
0000
0000
,
0010
0000
0000
0000
0000
0000
0000
0000
0000
1000
0000
0000
0100
0000
0000
0010
0000
0000
0002
0000
0000
0000
0000
0003
,
2000
0000
0000
0000
0000
3000
0001
0000
0000
0010
0000
0000
1100
0000
0000
1100
0000
0000
0000
0000
0000
0010
0000
0000
,
1000
0000
0000
0001
0000
0000
0020
0000
0000
0000
0000
0030
2000
0000
0000
0000
0000
3000
0010
0000
0000
0000
0000
0000
,
0010
0000
0000
0000
0000
0000
0200
0000
0000
0000
0000
0300
0020
0000
0000
0000
0000
0030
2000
0000
0000
0000
0000
3000
,
0001
0010
0100
1000
0011
0011
0000
1000
,
0010
0001
1000
0000
0010
0000
1000
0000
,
0001
0010
1000
0010
,
1000
0001
0100
0001
1100
1100
0000
0010
,
0010
1000
0001
0000
1000
0000
0001
0000
,
0100
0100
0001
1000
,
0001
0010
1000
0100
0011
0011
0000
0010
,
1000
0001
0010
0000
0001
0000
0010
0000
,
0010
0000
0000
0000
0000
0000
2000
0000
0000
0000
0000
3000
0200
0000
0000
0000
0000
0300
0002
0000
0000
0003
0000
0000
,
0010
0000
0000
0010
0000
0000
1000
0000
0000
0100
0000
0000
0010
0000
0000
0200
0000
0000
0000
0000
0300
0000
0000
0000
;
